Forrest Gump (1994) | Isshuukan Friends | слушать
Si continuas navegando por Mega Descargas, aceptas las políticas de privacidadAcepto el uso de cookies
^
Creador
maestro3h
Posts
1
Comentarios
0
Rango
Novato

[FLAC] Catherine Sound Disc [OST]

Catherine Sound Disc by Shoji Meguro & Art Book





Catherine Original Soundtrack




TRACKLIST


I       Planets Suite \"Mars\", \"Jupiter\"

II     Symphony No. 5 In C Minor \"Fate\" 3rd Movement

III     \"Little\" Fugue In G Minor

IV     Symphony No. 9 In E Minor \"From The New World\" 1st Movement, 3rd Movement Scherzo

V     William Tell Overture Part 2 \"The Storm\" And Part 3 \"The Ranz Des Vaches\"

VI     Polovtsian Dances

VII     Pictures At An Exhibition \"The Hut On Fowl\'s Legs (Baba-Yagá)\"

VIII     L\'Arlésienne Second Suite \"Farandole\"

IX     Revolutionary Etude

X     Messiah \"Hallelujah Chorus\"

XI     Piano Sonata No. 2 \"Funeral March\" 3rd Movement



INFO


Soundtrack del video juego Catherine, en su mayoria sinfonias clasicas de Beethoven, Bach, Chopin entre otros que fueron adaptadas con intrumentos modernos para el juego. El Pack de coleccionista incluye un disco PS3 del juego, libro de arte del juego, el Soundtrack CD, dos boxers, un cojin y una camiseta del juego.

   

CUE

REM GENRE Score
REM DATE 2011
REM DISCID 8D06ED0B
REM COMMENT \"ExactAudioCopy v1.0b3\"
PERFORMER \"Shoji Meguro\"
TITLE \"CATHERINE Sound Disc\"
FILE \"01. Planets Suite \'\'Mars\'\', \'\'Jupiter\'\'.flac\" WAVE
  TRACK 01 AUDIO
    TITLE \"Gustav Holst - Planets Suite \'Mars\', \'Jupiter\'\"
    PERFORMER \"Shoji Meguro\"
    INDEX 01 00:00:00
FILE \"02. Symphony No. 5 in C minor \'\'Fate\'\' 3rd Movement.flac\" WAVE
  TRACK 02 AUDIO
    TITLE \"Ludwig van Beethoven - Symphony No. 5 in C minor \'Fate\' 3rd Movement\"
    PERFORMER \"Shoji Meguro\"
    INDEX 01 00:00:00
FILE \"03. \'\'Little\'\' Fugue in G minor.flac\" WAVE
  TRACK 03 AUDIO
    TITLE \"Johann Sebastian Bach - \'Little\' Fugue in G minor\"
    PERFORMER \"Shoji Meguro\"
    INDEX 01 00:00:00
FILE \"04. Symphony No. 9 in E minor \'\'From the New World\'\' 1st Movement, 3rd Movement Scherzo.flac\" WAVE
  TRACK 04 AUDIO
    TITLE \"Antonín Dvo?ák - Symphony No. 9 in E minor \'From the New World\' 1st Movement, 3rd Movement Scherzo\"
    PERFORMER \"Shoji Meguro\"
    INDEX 01 00:00:00
FILE \"05. William Tell Overture Part 2 \'\'The Storm\'\' and Part 3 \'\'The Ranz des Vaches\'\'.flac\" WAVE
  TRACK 05 AUDIO
    TITLE \"Gioachino Rossini - William Tell Overture Part 2 \'The Storm\' and Part 3 \'The Ranz des Vaches\'\"
    PERFORMER \"Shoji Meguro\"
    INDEX 01 00:00:00
FILE \"06. Polovtsian Dances.flac\" WAVE
  TRACK 06 AUDIO
    TITLE \"Alexander Borodin - Polovtsian Dances\"
    PERFORMER \"Shoji Meguro\"
    INDEX 01 00:00:00
FILE \"07. Pictures at an Exhibition \'\'The Hut on Fowl\'s Legs (Baba-Yaga)\'\'.flac\" WAVE
  TRACK 07 AUDIO
    TITLE \"Modest Mussorgsky - Pictures at an Exhibition \'The Hut on Fowl\'s Legs (Baba-Yagá)\'\"
    PERFORMER \"Shoji Meguro\"
    INDEX 01 00:00:00
FILE \"08. L\'Arlesienne Second Suite \'\'Faradole\'\'.flac\" WAVE
  TRACK 08 AUDIO
    TITLE \"Georges Bizet - L\'Arlésienne Second Suite \'Farandole\'\"
    PERFORMER \"Shoji Meguro\"
    INDEX 01 00:00:00
FILE \"09. \'\'Revolutionary Etude\'\'.flac\" WAVE
  TRACK 09 AUDIO
    TITLE \"Frederic Chopin - \'Revolutionary Etude\'\"
    PERFORMER \"Shoji Meguro\"
    INDEX 01 00:00:00
FILE \"10. Messiah \'\'Hallelujah Chorus\'\'.flac\" WAVE
  TRACK 10 AUDIO
    TITLE \"Georg Friedrich Händel - Messiah \'Hallelujah Chorus\'\"
    PERFORMER \"Shoji Meguro\"
    INDEX 01 00:00:00
FILE \"11. Piano Sonata No. 2 \'\'Funeral March\'\' 3rd Movement.flac\" WAVE
  TRACK 11 AUDIO
    TITLE \"Frederic Chopin - Piano Sonata No. 2 \'Funeral March\' 3rd Movement\"
    PERFORMER \"Shoji Meguro\"
    INDEX 01 00:00:00

AUDIO
Format                      : FLAC
Format/Info                 : Free Lossless Audio Codec
Bit rate mode               : Variable
Bit rate                    : 926 Kbps
Channel positions           : Front: L R
Sampling rate               : 44.1 KHz
Bit depth                   : 16 bits










DESCARGA POR MEGA


http://mega.nz/#!e0Y3yAZJ!CTfy5NSX7Myd1tzwMiFVeSe6e5dgslLyIgQ84kd4AsQ

Contraseña de Mega Descargas

TheDalas

The_dalas

Otros posts que te van a interesar:

  • No se encontraron posts relacionados.

0 Comentarios


Cargando comentarios espera un momento...
No tienes permisos para comentar.

Para poder comentar necesitas estar Registrado. O.. ya tienes usuario? Logueate!